<?xml version="1.0" standalone="no"?>
<!DOCTYPE svg PUBLIC "-//W3C//DTD SVG 1.1//EN" "http://www.w3.org/Graphics/SVG/1.1/DTD/svg11.dtd" >
<svg xmlns="http://www.w3.org/2000/svg">
<metadata></metadata>
<defs>
<font id="walkway_ultracondensed_boldRg" horiz-adv-x="257" >
<font-face units-per-em="1000" ascent="800" descent="-200" />
<missing-glyph horiz-adv-x="173" />
<glyph horiz-adv-x="0" />
<glyph unicode="&#xd;" horiz-adv-x="173" />
<glyph unicode=" "  horiz-adv-x="173" />
<glyph unicode="&#x09;" horiz-adv-x="173" />
<glyph unicode="&#xa0;" horiz-adv-x="173" />
<glyph unicode="!" horiz-adv-x="95" d="M28 166v512h40v-512h-40zM48 0q-21 0 -21 25v62q0 24 21 24q19 0 19 -24v-62q0 -25 -19 -25z" />
<glyph unicode="&#x22;" horiz-adv-x="143" d="M99 547q-20 0 -20 22v82q0 21 20 21t20 -21v-82q0 -22 -20 -22zM43 547q-20 0 -20 22v82q0 21 20 21t20 -21v-82q0 -22 -20 -22z" />
<glyph unicode="#" horiz-adv-x="260" d="M233 350h-44l-8 -71h43l-6 -45h-43l-10 -73h-40l9 73h-28l-10 -73h-40l9 73h-43l6 45h43l9 71h-44l6 45h44l9 73h41l-10 -73h29l9 73h40l-9 -73h44zM120 350l-8 -71h28l9 71h-29z" />
<glyph unicode="$" horiz-adv-x="315" d="M211 -8v-62h-40v52h-9q-12 0 -23 2v-54h-40v65q-96 48 -96 224v24h40v-21q0 -131 56 -173v298q-86 46 -86 166q0 137 86 174v66h40v-57h13q10 0 19 -1v58h40v-69q87 -42 88 -216h-41q-3 124 -47 162v-278q46 -25 67 -54q28 -42 28 -127q0 -58 -22 -105q-25 -55 -73 -74z M171 647q-9 2 -19 2q-7 0 -13 -1v-266l32 -13v278zM99 633q-45 -32 -45 -120q0 -74 45 -110v230zM211 297v-253q54 34 54 130q0 54 -11 78t-43 45zM171 318l-32 12v-298q11 -2 23 -2h9v288z" />
<glyph unicode="%" horiz-adv-x="367" d="M93 294q-80 0 -80 180q0 184 81 184q80 0 80 -184q0 -180 -81 -180zM88 -1h-44l244 679h44zM274 -19q-80 0 -80 180q0 185 81 185q80 0 80 -185q0 -180 -81 -180zM93 611q-39 0 -39 -137q0 -133 40 -133q39 0 39 133q0 137 -40 137zM274 299q-39 0 -39 -138 q0 -133 40 -133q39 0 39 133q0 138 -40 138z" />
<glyph unicode="&#x26;" horiz-adv-x="295" d="M230 -19v82q-39 -79 -99 -79q-62 0 -96 62q-27 49 -27 111q0 69 28 124q23 46 75 101q-59 62 -59 162q0 48 18 84q23 50 72 50q50 0 74 -50q16 -36 16 -86q0 -93 -94 -194q-47 -50 -66 -87q-24 -47 -24 -104q0 -46 18 -82q22 -44 62 -44q57 0 85 105q17 61 17 144h41 v-299h-41zM180 602q-13 29 -37 29q-27 0 -41 -32q-10 -24 -10 -56q0 -82 48 -130q52 64 52 130q0 34 -12 59z" />
<glyph unicode="'" horiz-adv-x="86" d="M43 547q-20 0 -20 22v82q0 21 20 21t20 -21v-82q0 -22 -20 -22z" />
<glyph unicode="(" horiz-adv-x="114" d="M84 -168q-64 201 -64 451q0 251 64 451h42q-66 -201 -66 -451t66 -451h-42z" />
<glyph unicode=")" horiz-adv-x="114" d="M28 -168h-43q69 201 69 451t-69 451h43q66 -197 66 -451q0 -253 -66 -451z" />
<glyph unicode="*" horiz-adv-x="167" d="M37 624h2l19 -18v43q0 23 21 23q20 0 20 -23v-44q22 20 29 20q20 0 20 -19q0 -14 -7 -21l-31 -27l31 -29q7 -7 7 -18q0 -22 -18 -22q-13 0 -31 18v-41q0 -23 -20 -23q-21 0 -21 23v40q-18 -17 -31 -17q-11 0 -16 13q-6 15 6 27l31 29l-32 29q-6 6 -6 17q0 21 19 21 q4 0 8 -1z" />
<glyph unicode="+" horiz-adv-x="274" d="M157 228v-161h-40v161h-94v46h94v159h40v-159h94v-46h-94z" />
<glyph unicode="," horiz-adv-x="128" d="M74 -72q-3 -19 -19 -19q-5 0 -10 3q-11 6 -11 18v5l21 133q5 27 28 16q15 -6 12 -24z" />
<glyph unicode="-" horiz-adv-x="171" d="M10 254v20h156v-20h-156z" />
<glyph unicode="." horiz-adv-x="102" d="M51 -2q-20 0 -20 20v47q0 20 20 20t20 -20v-47q0 -20 -20 -20z" />
<glyph unicode="/" horiz-adv-x="171" d="M23 0h-41l171 694h41z" />
<glyph unicode="0" horiz-adv-x="286" d="M144 -12q-79 0 -113 103q-22 65 -22 156v164q0 91 24 159q35 101 111 101q75 0 110 -101q23 -69 23 -159v-164q0 -95 -23 -161q-34 -98 -110 -98zM237 411q0 73 -15 127q-24 86 -79 86t-79 -86q-15 -54 -15 -127v-164q0 -73 15 -127q24 -85 79 -85t79 85q15 54 15 127 v164z" />
<glyph unicode="1" horiz-adv-x="202" d="M127 0v552l-53 -85h-50l109 179h34v-646h-40z" />
<glyph unicode="2" horiz-adv-x="286" d="M13 0q0 186 100 305q18 20 69 80q42 49 42 107q0 118 -76 118q-88 0 -88 -195h-41q0 242 127 242q118 0 118 -167q0 -64 -48 -132l-92 -110q-63 -100 -69 -201h224v-47h-266z" />
<glyph unicode="3" horiz-adv-x="286" d="M146 -11q-80 0 -116 83q-25 58 -25 141v24h40v-37q0 -61 20 -106q27 -58 79 -58q51 0 76 50q20 39 20 96q0 141 -87 141h-38v47h38q80 0 80 122q0 48 -18 79q-22 39 -65 39q-95 0 -95 -184h-40q0 231 133 231q68 0 101 -55q25 -43 25 -110q0 -107 -54 -144 q60 -37 60 -166q0 -74 -29 -127q-36 -66 -105 -66z" />
<glyph unicode="4" horiz-adv-x="286" d="M220 215v-215h-40v215h-183l109 432h41l-97 -385h130v387l40 -4v-383h64v-47h-64z" />
<glyph unicode="5" horiz-adv-x="286" d="M141 -11q-137 0 -137 237h40q0 -190 98 -190q94 0 94 182q0 66 -19 115q-25 67 -79 67t-84 -95h-39l7 341h240v-47h-199l-5 -194q33 42 82 42q76 0 112 -87q25 -61 25 -141q0 -86 -26 -147q-36 -83 -110 -83z" />
<glyph unicode="6" horiz-adv-x="286" d="M231 426q0 76 -18 122q-24 61 -69 61q-49 0 -71 -63q-16 -43 -16 -105v-71q32 47 86 47q70 0 103 -82q23 -56 23 -131q0 -74 -23 -130q-33 -80 -104 -80t-104 80q-23 56 -23 130v11q1 3 1 8v220q0 76 23 131q33 79 106 79q71 0 104 -84q22 -56 22 -143h-40zM211 313 q-23 60 -69 60q-49 0 -71 -63q-16 -44 -16 -106q0 -59 15 -102q22 -65 72 -65t72 65q15 43 15 102q0 62 -18 109z" />
<glyph unicode="7" horiz-adv-x="286" d="M116 0h-41l150 599h-208v47h260z" />
<glyph unicode="8" horiz-adv-x="294" d="M147 -11q-79 0 -115 69q-26 51 -26 130q0 129 69 168q-52 39 -52 129q0 172 124 172q125 0 125 -172q0 -89 -53 -129q70 -38 70 -170q0 -82 -29 -133q-37 -64 -113 -64zM147 610q-84 0 -84 -126q0 -43 21 -74q23 -34 64 -34q40 0 64 36q20 31 20 74q0 124 -85 124z M148 329q-102 0 -102 -142q0 -151 101 -151q102 0 102 151q0 142 -101 142z" />
<glyph unicode="9" horiz-adv-x="286" d="M270 433v-239q0 -75 -23 -130q-33 -79 -105 -79q-73 0 -105 85q-22 57 -22 140h40q0 -76 18 -122q23 -60 69 -60q49 0 71 63q16 43 16 105l1 90q-33 -46 -86 -46q-71 0 -104 80q-23 56 -23 130t24 131q34 81 104 81t103 -81q23 -57 23 -131v-11q-1 -4 -1 -6zM213 559 q-23 60 -69 60q-49 0 -71 -63q-16 -44 -16 -106q0 -59 15 -103q22 -64 72 -64t72 64q15 44 15 103q0 62 -18 109z" />
<glyph unicode=":" horiz-adv-x="120" d="M60 355q-20 0 -20 24v61q0 25 20 25t20 -25v-61q0 -24 -20 -24zM60 -2q-20 0 -20 25v61q0 24 20 24t20 -24v-61q0 -25 -20 -25z" />
<glyph unicode=";" horiz-adv-x="123" d="M70 354q-20 0 -20 25v61q0 25 20 25t20 -25v-61q0 -25 -20 -25zM71 -70q-3 -21 -19 -21q-5 0 -10 3q-11 7 -11 20v6l21 148q3 20 19 20q14 0 20 -14q2 -7 1 -15z" />
<glyph unicode="&#x3c;" horiz-adv-x="262" d="M9 223v35l240 189v-55l-193 -152l193 -152v-56z" />
<glyph unicode="=" horiz-adv-x="309" d="M9 271v42h290v-42h-290zM9 167v42h290v-42h-290z" />
<glyph unicode="&#x3e;" horiz-adv-x="262" d="M9 32v56l193 152l-193 152v55l240 -189v-35z" />
<glyph unicode="?" d="M145 203v-37h-40v32q0 96 50 178q28 46 37 73q13 35 13 79q0 119 -76 119q-77 0 -87 -188l-37 43q12 192 125 192q61 0 92 -60q23 -45 23 -106q0 -72 -50 -166t-50 -159zM124 0q-19 0 -19 25v62q0 24 19 24q21 0 21 -24v-62q0 -25 -21 -25z" />
<glyph unicode="@" horiz-adv-x="412" d="M300 191q15 12 30 57q26 81 26 152q0 86 -31 158q-39 91 -109 91q-84 0 -127 -115q-33 -88 -33 -194q0 -105 33 -190q44 -115 126 -115q45 0 85 45q35 40 53 100h42q-20 -79 -62 -129q-53 -62 -115 -62q-110 0 -165 141q-39 100 -39 215q0 122 41 220q55 130 159 130 q95 0 145 -109q38 -84 38 -188q0 -95 -31.5 -177.5t-74.5 -82.5q-26 0 -29 38q-33 -51 -82 -52q-56 -1 -82 70q-18 48 -18 113q0 97 27 168q34 91 102 92q48 2 74 -44l3 44h39l-25 -371q1 -3 0 -5zM206 523q-45 -1 -70 -83q-18 -60 -18 -131q0 -143 63 -141q43 1 69 73 q17 47 22 107q1 12 1 35q0 141 -67 140z" />
<glyph unicode="A" horiz-adv-x="312" d="M286 0l-48 213h-163l-48 -213h-44l157 678h37l151 -678h-42zM159 572l-72 -311h140z" />
<glyph unicode="B" horiz-adv-x="315" d="M176 0h-167v678h173q66 0 97 -65q22 -47 22 -113q0 -102 -57 -145q67 -38 67 -166q0 -77 -28 -127q-36 -62 -107 -62zM181 631h-132v-255h132q42 0 63 45q16 34 16 84q0 126 -79 126zM180 329h-131v-282h133q47 0 71 49q19 37 19 92q0 141 -92 141z" />
<glyph unicode="C" horiz-adv-x="352" d="M313 517q-41 121 -116 121q-82 0 -120 -115q-27 -81 -27 -185t25 -183q37 -115 117 -115q71 0 117 122l31 -39q-50 -130 -148 -130q-105 0 -151 134q-31 88 -31 207q0 123 32 214q47 137 155 137q103 0 147 -128z" />
<glyph unicode="D" horiz-adv-x="333" d="M136 0h-123v678h141q173 0 173 -340q0 -129 -34 -215q-48 -123 -157 -123zM154 631h-101v-584h84q88 0 125 109q25 72 25 182q0 293 -133 293z" />
<glyph unicode="E" horiz-adv-x="276" d="M13 0v678h268v-47h-228v-255h202v-46h-202v-283h231v-47h-271z" />
<glyph unicode="F" horiz-adv-x="247" d="M53 631v-255h180v-46h-180v-330h-40v678h250v-47h-210z" />
<glyph unicode="G" horiz-adv-x="371" d="M192 -7q-112 0 -159 132q-31 86 -31 212q0 123 31 212q47 136 155 136q145 0 170 -239h-41q-21 192 -128 192q-83 0 -121 -115q-26 -78 -26 -185q0 -108 26 -185q38 -113 124 -113q67 0 103 83q27 64 27 143v18h-143v47h181q2 -34 2 -53q0 -106 -33 -182 q-45 -103 -137 -103z" />
<glyph unicode="H" horiz-adv-x="333" d="M280 0v330h-227v-330h-40v678h40v-302h227v302h40v-678h-40z" />
<glyph unicode="I" horiz-adv-x="66" d="M13 0v678h40v-678h-40z" />
<glyph unicode="J" horiz-adv-x="238" d="M109 -7q-106 0 -115 175h40q5 -128 73 -128q49 0 66 55q9 31 9 107v476h41v-482q0 -203 -114 -203z" />
<glyph unicode="K" horiz-adv-x="328" d="M296 0l-180 347l-63 -97v-250h-40v678h40v-351l232 351h50l-193 -292l200 -386h-46z" />
<glyph unicode="L" horiz-adv-x="247" d="M13 0v678h40v-631h210v-47h-250z" />
<glyph unicode="M" horiz-adv-x="401" d="M348 0v522l-130 -522h-35l-130 522v-522h-40v678h44l143 -579l145 579h43v-678h-40z" />
<glyph unicode="N" horiz-adv-x="333" d="M280 0l-227 566v-566h-40v678h40q77 -188 227 -563v563h40v-678h-40z" />
<glyph unicode="O" horiz-adv-x="371" d="M186 -7q-108 0 -154 135q-30 87 -30 211q0 122 30 206q46 130 154 130q107 0 154 -130q30 -85 30 -206q0 -127 -33 -217q-47 -129 -151 -129zM304 522q-37 106 -118 106q-82 0 -119 -110q-25 -75 -25 -179q0 -105 26 -184q37 -115 118 -115q83 0 119 115q24 76 24 184 q0 109 -25 183z" />
<glyph unicode="P" horiz-adv-x="304" d="M170 296h-117v-296h-40v678h162q129 0 129 -194q0 -75 -29 -125q-35 -63 -105 -63zM178 631h-125v-288h125q45 0 68 49q17 38 17 92q0 147 -85 147z" />
<glyph unicode="Q" horiz-adv-x="371" d="M250 8q14 -27 34 -27h60v-47h-60q-46 0 -72 59q-13 -2 -26 -2q-108 0 -154 135q-30 87 -30 212q0 122 30 207q46 130 154 130q107 0 154 -131q30 -85 30 -206q0 -263 -120 -330zM304 521q-37 107 -118 107q-82 0 -119 -111q-25 -74 -25 -179q0 -113 27 -188q25 75 77 75 q47 0 71 -57q18 -42 18 -90q0 -12 1 -24q93 58 93 284q0 110 -25 183zM195 79q0 34 -9 62q-13 38 -40 38q-44 0 -49 -86q37 -55 89 -55q7 0 13 1q-4 20 -4 40z" />
<glyph unicode="R" horiz-adv-x="315" d="M245 331q55 -41 55 -159v-172h-40v170q0 133 -84 133h-123v-303h-40v678h168q124 0 124 -178q0 -124 -60 -169zM182 631h-129v-279h121q49 0 73 50q18 38 18 95q0 134 -83 134z" />
<glyph unicode="S" horiz-adv-x="315" d="M162 -7q-159 0 -159 226v24h40v-20q0 -183 119 -183q103 0 103 135q0 89 -51 118q-8 5 -81 38q-53 23 -75 46q-45 47 -45 134q0 174 139 174q145 0 147 -218h-41q-2 82 -18 117q-24 54 -88 54q-98 0 -98 -127q0 -65 29 -96q18 -20 64 -37q91 -33 123 -71q36 -44 36 -135 q0 -73 -35 -122q-39 -57 -109 -57z" />
<glyph unicode="T" horiz-adv-x="267" d="M154 631v-631h-41v631h-127v47h295v-47h-127z" />
<glyph unicode="U" horiz-adv-x="325" d="M163 -7q-150 0 -150 263v422h40v-422q0 -216 110 -216q109 0 109 213v425h40v-424q0 -261 -149 -261z" />
<glyph unicode="V" horiz-adv-x="308" d="M174 0h-36l-151 678h42l127 -572l124 572h40z" />
<glyph unicode="W" horiz-adv-x="475" d="M345 0h-36l-70 329l-69 -329h-35l-145 678h40l122 -570l66 319l-53 251h40l122 -570l118 570h40z" />
<glyph unicode="X" horiz-adv-x="296" d="M273 0l-124 295l-125 -295h-45l147 349l-140 329h46l117 -277l118 277h45l-140 -329l145 -349h-44z" />
<glyph unicode="Y" horiz-adv-x="307" d="M174 330v-330h-41v330l-156 348h46l130 -289l131 289h46z" />
<glyph unicode="Z" horiz-adv-x="307" d="M3 0v42l250 589h-236v47h283v-41l-250 -590h254v-47h-301z" />
<glyph unicode="[" horiz-adv-x="114" d="M34 -168v902h88v-48h-47v-806h47v-48h-88z" />
<glyph unicode="\" horiz-adv-x="171" d="M149 0l-172 694h41l172 -694h-41z" />
<glyph unicode="]" horiz-adv-x="114" d="M79 -168h-87v48h47v806h-47v48h88z" />
<glyph unicode="^" horiz-adv-x="146" d="M93 511l-21 61l-21 -61h-41l46 135h32l48 -135h-43z" />
<glyph unicode="_" d="M-15 -119v48h287v-48h-287z" />
<glyph unicode="`" horiz-adv-x="95" d="M88 533q-15 -12 -30 6l-56 101q-8 14 2 25q6 8 14 8q13 0 20 -12l55 -100q9 -17 -5 -28z" />
<glyph unicode="a" horiz-adv-x="276" d="M219 -1v54q-34 -64 -92 -64q-72 0 -105 100q-23 68 -23 154t23 156q35 101 107 101q58 0 90 -59v57h41v-499h-41zM203 375q-24 78 -76 78t-74 -86q-14 -54 -14 -124q0 -207 88 -207q49 0 74 78q18 58 18 129q0 77 -16 132z" />
<glyph unicode="b" horiz-adv-x="276" d="M253 96q-32 -106 -110 -106q-54 0 -89 65v-55h-41v678h41v-233q34 63 90 63q73 0 107 -104q22 -69 22 -158q0 -86 -20 -150zM217 379q-24 81 -71 81q-92 0 -92 -216q0 -72 18 -129q26 -78 74 -78q52 0 74 86q13 51 13 124q0 74 -16 132z" />
<glyph unicode="c" d="M225 48q-33 -59 -91 -59q-76 0 -111 98q-22 64 -22 149q0 92 22 159q36 105 117 105q92 0 113 -150l-37 -35q-17 138 -77 138q-58 0 -83 -87q-15 -54 -15 -130q0 -70 15 -121q23 -79 78 -79q69 0 84 149l38 -32q-8 -65 -31 -105z" />
<glyph unicode="d" horiz-adv-x="276" d="M219 0v54q-34 -65 -92 -65q-72 0 -105 102q-23 69 -23 156t24 158q34 102 106 102q58 0 90 -59v230h41v-678h-41zM203 381q-24 79 -76 79t-74 -87q-14 -55 -14 -126q0 -211 88 -211q49 0 74 80q18 58 18 131q0 78 -16 134z" />
<glyph unicode="e" d="M38 226q4 -190 90 -190q63 0 87 119h40q-25 -166 -128 -166q-129 0 -129 254q0 87 24 156q34 101 108 101q76 0 109 -94q22 -61 22 -144v-35zM202 380q-24 73 -72 73q-84 0 -92 -180h181q-2 60 -17 107z" />
<glyph unicode="f" horiz-adv-x="131" d="M75 477v-32h55v-48h-55v-398h-40v398h-35v48h35v32q0 189 140 189v-46q-52 0 -76 -33t-24 -110z" />
<glyph unicode="g" horiz-adv-x="267" d="M130 -179q-112 0 -116 176h40q5 -129 77 -129q83 0 83 156v33q-34 -57 -88 -57q-70 0 -103 97q-23 67 -23 151q0 87 23 154q33 98 106 98q53 0 85 -59v48h41v-466q0 -202 -125 -202zM197 373q-24 80 -69 80q-49 0 -72 -80q-16 -54 -16 -124q0 -69 13 -120q22 -82 72 -82 q53 0 75 80q14 50 14 119t-17 127z" />
<glyph unicode="h" d="M203 0v324q0 136 -68 136q-47 0 -68 -73q-13 -47 -13 -109v-278h-41v678h41v-217q29 47 80 47q62 0 90 -66q19 -45 19 -109v-333h-40z" />
<glyph unicode="i" horiz-adv-x="67" d="M33 577q-15 0 -20 21v67q5 22 20 22q12 0 21 -20v-70q-8 -20 -21 -20zM13 0v496h41v-496h-41z" />
<glyph unicode="j" horiz-adv-x="67" d="M33 577q-15 0 -20 20v68q5 22 20 22q12 0 21 -20v-71q-8 -19 -21 -19zM-88 -179v47q51 0 75.5 36.5t24.5 121.5v469h40v-470q0 -204 -140 -204z" />
<glyph unicode="k" horiz-adv-x="261" d="M221 0l-122 261l-45 -65v-196h-41v678h41v-407l155 226l54 -2l-136 -193l141 -302h-47z" />
<glyph unicode="l" horiz-adv-x="67" d="M13 0v678h41v-678h-41z" />
<glyph unicode="m" horiz-adv-x="400" d="M346 0v319q0 134 -56 134q-70 0 -70 -147v-306h-40v319q0 134 -58 134q-41 0 -58 -75q-10 -45 -10 -104v-274h-41v489h41v-34q28 45 73 45q54 0 78 -64q27 64 84 64q97 0 97 -172v-328h-40z" />
<glyph unicode="n" d="M203 0v319q0 134 -68 134q-47 0 -68 -72q-13 -46 -13 -107v-274h-41v489h41v-35q29 46 80 46q62 0 90 -64q19 -45 19 -108v-328h-40z" />
<glyph unicode="o" horiz-adv-x="267" d="M133 -11q-74 0 -109 100q-25 69 -25 155q0 87 23 154q34 102 112 102q76 0 110 -100q24 -67 24 -156q0 -92 -25 -159q-35 -96 -110 -96zM211 375q-25 78 -77 78q-56 0 -80 -84q-15 -53 -15 -125q0 -70 16 -125q25 -83 79 -83q50 0 76 78q18 56 18 130q0 76 -17 131z" />
<glyph unicode="p" horiz-adv-x="276" d="M253 90q-31 -108 -109 -108q-58 0 -90 59v-209h-41v657h41v-51q33 62 89 62q74 0 107 -101q23 -68 23 -156q0 -86 -20 -153zM217 373q-23 80 -71 80q-53 0 -76 -82q-16 -54 -16 -127q0 -215 92 -215q87 0 87 213q0 73 -16 131z" />
<glyph unicode="q" horiz-adv-x="276" d="M219 -168v209q-33 -59 -93 -59q-69 0 -103 104q-24 72 -24 157t24 155q34 102 105 102q59 0 91 -60v49h40v-657h-40zM201 373q-25 80 -75 80q-51 0 -73 -87q-14 -54 -14 -124q0 -71 14 -126q22 -87 73 -87q93 0 93 213q0 73 -18 131z" />
<glyph unicode="r" horiz-adv-x="156" d="M69 352q-15 -65 -15 -156v-196h-41v489h41v-49q32 60 104 60v-47q-66 0 -89 -101z" />
<glyph unicode="s" horiz-adv-x="238" d="M122 -13q-117 0 -117 200h41q0 -151 76 -151q65 0 65 93q0 63 -47 85q-11 4 -47 14q-78 24 -78 130q0 51 20 90q27 53 79 53q113 0 113 -178h-42q0 129 -69 129q-29 0 -46 -32q-13 -27 -13 -62q0 -61 44 -78q13 -5 51 -19q76 -26 76 -132q0 -142 -106 -142z" />
<glyph unicode="t" horiz-adv-x="129" d="M84 420v-420h-39l-1 420h-49v47h49v147h40v-147h50v-47h-50z" />
<glyph unicode="u" d="M203 -1v36q-29 -46 -81 -46q-62 0 -90 70q-19 47 -19 112v317h41v-316q0 -136 68 -136q81 0 81 188v264h40v-489h-40z" />
<glyph unicode="v" horiz-adv-x="231" d="M138 0h-36l-117 488h44l90 -390l85 390h41z" />
<glyph unicode="w" horiz-adv-x="378" d="M281 0h-37l-53 234l-49 -234h-36l-111 488h43l85 -386l47 228l-37 158h44l85 -386l79 386h42z" />
<glyph unicode="x" horiz-adv-x="229" d="M204 0l-90 202l-89 -202h-46l113 253l-102 235h45l79 -185l81 185h46l-104 -235l113 -253h-46z" />
<glyph unicode="y" d="M118 -179q-112 0 -115 176h39q5 -129 77 -129q84 0 84 156v5q-29 -47 -81 -47q-62 0 -90 71q-19 47 -19 113v322h41v-321q0 -138 68 -138q81 0 81 191v268h40v-465q0 -202 -125 -202z" />
<glyph unicode="z" horiz-adv-x="232" d="M-1 0v40l177 401h-163v47h212v-39l-178 -402h186v-47h-234z" />
<glyph unicode="{" horiz-adv-x="171" d="M119 -168q-53 0 -53 107v221q0 67 -11 82q-4 7 -26 27v29q25 21 29 31q8 19 8 77v221q0 107 53 107h20v-48h-19q-14 0 -14 -83v-199q0 -64 -10 -91q-5 -14 -20 -30q15 -15 20 -29q10 -25 10 -92v-198q0 -84 14 -84h19v-48h-20z" />
<glyph unicode="|" horiz-adv-x="114" d="M37 -32v738h40v-738h-40z" />
<glyph unicode="}" horiz-adv-x="171" d="M114 242q-12 -17 -12 -82v-221q0 -107 -53 -107h-20v48h20q8 0 12 35q1 12 1 49v198q0 67 10 92q5 14 20 29q-15 16 -20 30q-10 27 -10 91v199q0 36 -1 49q-4 34 -12 34h-20v48h20q53 0 53 -107v-221q0 -56 9 -77q5 -11 28 -31v-29q-19 -17 -25 -27z" />
<glyph unicode="~" horiz-adv-x="269" d="M245 398q-19 -47 -59 -47q-16 0 -58.5 29t-45.5 29q-19 0 -24 -59h-46q3 37 17 65q20 39 54 39q15 0 57.5 -29.5t45.5 -29.5q20 0 25 61h46q-3 -37 -12 -58z" />
<glyph unicode="&#xa0;" />
<glyph unicode="&#xa1;" horiz-adv-x="95" d="M48 472q-20 0 -20 24v62q0 25 20 25t20 -25v-62q0 -24 -20 -24zM27 -95v512h40v-512h-40z" />
<glyph unicode="&#xa2;" d="M225 48q-33 -60 -91 -60q-27 0 -50 14l-9 -38h-41l18 69q-51 68 -51 203q0 93 22 161q36 106 117 106q13 0 26 -5l13 53h41l-18 -74q38 -38 51 -125l-37 -36q-10 76 -27 107l-92 -374q16 -14 37 -14q69 0 84 150l38 -33q-8 -64 -31 -104zM139 456q-58 0 -83 -88 q-15 -55 -15 -132q0 -90 25 -144l89 361q-8 3 -16 3z" />
<glyph unicode="&#xa4;" horiz-adv-x="286" d="M236 181l-51 87q-21 -20 -47 -20t-46 20l-52 -86l-24 39l50 85q-16 35 -16 81q0 47 16 83l-50 86l24 40l52 -89q21 20 46 20q26 0 46 -20l52 89l24 -40l-50 -86q17 -36 17 -82q0 -47 -16 -83l49 -84zM138 481q-26 0 -39 -35q-10 -27 -10 -58t10 -58q13 -37 39 -37t39 35 q10 26 10 59q0 34 -12.5 64t-36.5 30z" />
<glyph unicode="&#xa5;" horiz-adv-x="316" d="M179 330v-38h104v-47h-104v-74h104v-48h-104v-123h-41v123h-104v48h104v74h-104v47h104v38l-156 348h46l130 -289l131 289h46z" />
<glyph unicode="&#xa6;" horiz-adv-x="114" d="M37 364v332h40v-332h-40zM37 -23v332h40v-332h-40z" />
<glyph unicode="&#xa7;" horiz-adv-x="286" d="M202 145q42 -35 42 -109q0 -51 -19 -91q-26 -53 -78 -53q-113 0 -113 178h41q0 -131 69 -131q60 0 60 97q0 40 -13.5 58t-49.5 32q-15 5 -49 19q-31 19 -47 61q-13 36 -11 74q4 86 49 117q-42 35 -42 110q0 51 20 91q26 53 78 53q112 0 112 -179h-40q0 132 -69 132 q-31 0 -48 -34q-13 -26 -13 -63q0 -49 25 -69q10 -7 59 -27q29 -6 48 -26q40 -35 40 -112q0 -95 -51 -128zM138 366q-63 0 -63 -82q0 -41 17 -71q20 -36 55 -36q65 0 65 95q-11 94 -74 94z" />
<glyph unicode="&#xa8;" horiz-adv-x="105" d="M81 547q-20 0 -20 20v38q0 19 20 19t20 -19v-38q0 -20 -20 -20zM24 547q-20 0 -20 20v38q0 19 20 19t20 -19v-38q0 -20 -20 -20z" />
<glyph unicode="&#xa9;" horiz-adv-x="274" d="M140 236q-72 0 -108 83q-26 60 -26 134q0 76 28 138q36 81 105 81t105 -81q28 -61 28 -137q0 -77 -28 -139q-37 -79 -104 -79zM210 562q-25 62 -70 62q-46 0 -72 -61q-21 -50 -21 -109t21 -109q26 -62 71 -62t71 61q21 50 21 109q0 58 -21 109zM144 308q-47 0 -70 54 q-17 38 -17 89q0 49 17 87q22 52 68 52q67 0 76 -118h-42q-7 70 -35 70q-43 0 -43 -91q0 -95 46 -95q22 0 33 73h42q-18 -121 -75 -121z" />
<glyph unicode="&#xaa;" horiz-adv-x="185" d="M138 348v14q-19 -20 -46 -20q-48 0 -70 62q-16 42 -16 96t16 97q23 61 71 61q26 0 45 -18v17h41v-309h-41zM92 611q-45 0 -45 -111t45 -111q46 0 46 111t-46 111z" />
<glyph unicode="&#xab;" horiz-adv-x="192" d="M77 261v25l103 137v-68l-60 -81l60 -82v-64zM20 261v25l103 137v-68l-60 -81l60 -82v-64z" />
<glyph unicode="&#xac;" horiz-adv-x="295" d="M239 134v126h-230v42h271v-168h-41z" />
<glyph unicode="&#xae;" horiz-adv-x="266" d="M242 323q-35 -87 -108 -87q-71 0 -107 84q-26 60 -26 133q0 76 28 138q36 81 105 81t105 -81q28 -61 28 -137q0 -70 -25 -131zM205 562q-25 62 -71 62q-50 0 -74 -66q-18 -47 -18 -104q0 -58 21 -109q26 -62 71 -62q50 0 74 66q18 47 18 104q0 58 -21 109zM190 448 q12 -20 12 -55v-77h-42v76q0 31 -14 31h-29v-107h-41v270h71q56 0 56 -79q0 -38 -13 -59zM147 537h-30v-65h28q17 0 17 34q0 31 -15 31z" />
<glyph unicode="&#xaf;" horiz-adv-x="153" d="M2 597v19h150v-19h-150z" />
<glyph unicode="&#xb0;" horiz-adv-x="206" d="M103 385q-46 0 -71 53q-18 38 -18 82q0 43 18 82q24 53 70 53q48 0 72 -52q17 -37 17 -82q0 -49 -20 -88q-24 -48 -68 -48zM138 585q-14 26 -35 26q-26 0 -39 -33q-10 -25 -10 -57q0 -33 10 -58q13 -34 39 -34t39 34q10 25 10 57q0 36 -14 65z" />
<glyph unicode="&#xb1;" horiz-adv-x="309" d="M174 226v-164h-40v164h-94v46h94v161h40v-161h94v-46h-94zM41 -3v47h228v-47h-228z" />
<glyph unicode="&#xb2;" horiz-adv-x="192" d="M3 256q0 124 71 201l41 45q23 25 23 53q0 59 -41 59q-49 0 -49 -114h-42q0 162 89 162q85 0 85 -109q0 -40 -32 -81l-62 -72q-35 -47 -40 -97h143v-47h-186z" />
<glyph unicode="&#xb3;" horiz-adv-x="209" d="M107 252q-56 0 -81 50q-19 37 -19 91v24h42v-33q0 -33 12 -56q15 -28 44 -28q55 0 55 75q0 72 -49 72h-32v48h33q44 0 44 61q0 58 -47 58q-53 0 -53 -108h-42q0 156 95 156q45 0 69 -35q20 -30 20 -71q0 -59 -28 -85q32 -29 32 -96q0 -50 -22 -83q-26 -40 -73 -40z" />
<glyph unicode="&#xb4;" horiz-adv-x="104" d="M42 540q-7 -11 -17 -11q-22 0 -22 21q0 5 3 11q20 38 39.5 75t35.5 37q12 0 17 -11q6 -11 0 -23z" />
<glyph unicode="&#xb5;" d="M150 -17q-8 -1 -16 -1q-51 0 -80 46v-199h-41v659h41v-268q0 -191 80 -191q69 0 69 139v320h40v-321q0 -110 -44 -156q-6 -7 -6 -22q0 -21 9 -27t31 -6v-51q-48 0 -68 29q-14 22 -15 49z" />
<glyph unicode="&#xb6;" horiz-adv-x="243" d="M187 -133v764h-12v-764h-40v371q-61 3 -94 85q-26 64 -26 135q0 77 28 139q37 82 106 82q3 0 6 -1h73v-811h-41z" />
<glyph unicode="&#xb7;" horiz-adv-x="102" d="M58 280q-20 0 -20 21v46q0 20 20 20t20 -20v-46q0 -21 -20 -21z" />
<glyph unicode="&#xb8;" horiz-adv-x="127" d="M60 -174q-22 0 -62 21l14 42q35 -20 47 -20q24 0 24 30q0 21 -20 22q-6 0 -28 -20v36l4 72h40l-1 -47q48 -4 48 -66q0 -70 -66 -70z" />
<glyph unicode="&#xb9;" horiz-adv-x="141" d="M75 260v308l-32 -39h-57l99 124h32v-393h-42z" />
<glyph unicode="&#xba;" horiz-adv-x="202" d="M100 350q-50 0 -74 58q-18 42 -18 95q0 55 18 96q24 57 76 57q51 0 75 -58q18 -41 18 -95q0 -59 -18 -99q-25 -54 -77 -54zM144 575q-15 39 -43 39q-54 0 -54 -111t54 -111q55 0 55 111q0 40 -12 72z" />
<glyph unicode="&#xbb;" horiz-adv-x="187" d="M77 128v64l59 82l-59 81v68l103 -137v-25zM20 128v64l60 82l-60 81v68l103 -137v-25z" />
<glyph unicode="&#xbc;" horiz-adv-x="400" d="M121 0h-42l171 694h41zM86 252v319l-33 -41h-53l93 123h33v-401h-40zM340 131v-131h-39v131h-134l83 279h41l-69 -234h79v236l39 -4v-232h45v-45h-45z" />
<glyph unicode="&#xbd;" horiz-adv-x="393" d="M115 0h-41l171 694h41zM81 252v319l-33 -41h-54l94 123h33v-401h-40zM200 0q1 124 67 198q21 25 43 49q25 33 25 59q0 64 -42 64q-50 0 -50 -119h-39q0 163 87 163q83 0 83 -110q0 -38 -22 -70q-24 -28 -48 -57q-58 -69 -63 -133h143v-44h-184z" />
<glyph unicode="&#xbe;" horiz-adv-x="444" d="M165 0h-41l171 694h41zM112 244q-98 0 -98 142v23h39v-31q0 -35 13 -59q16 -30 45 -30q56 0 56 79q0 78 -50 78h-32v44h32q46 0 46 64q0 63 -48 63q-54 0 -55 -111h-39q1 155 93 155q88 0 88 -107q0 -59 -31 -87q36 -31 36 -99q0 -49 -22 -83q-27 -41 -73 -41zM385 131 v-131h-40v131h-134l84 279h42l-71 -234h79v236l40 -4v-232h45v-45h-45z" />
<glyph unicode="&#xbf;" d="M125 488q-19 0 -19 24v62q0 25 19 25q21 0 21 -25v-62q0 -24 -21 -24zM121 -95q-63 0 -93 60q-23 44 -23 107q0 61 50 165t50 160v37h41v-33q0 -95 -51 -178q-28 -47 -38 -72q-12 -34 -12 -79q0 -120 76 -120q78 0 87 192l37 -48q-13 -191 -124 -191z" />
<glyph unicode="&#xc0;" horiz-adv-x="331" d="M206 695q-17 -14 -29 7l-56 120q-3 7 -3 13q0 24 21 24q11 0 18 -13l55 -119q9 -21 -6 -32zM296 0l-48 215h-163l-49 -215h-43l157 684h37l151 -684h-42zM169 577l-73 -314h141z" />
<glyph unicode="&#xc1;" horiz-adv-x="331" d="M157 705q-6 -13 -18 -13q-21 0 -21 23q0 7 3 14l56 119q8 16 18 16t16.5 -12.5t0.5 -27.5zM296 0l-48 215h-163l-49 -215h-43l157 684h37l151 -684h-42zM169 577l-73 -314h141z" />
<glyph unicode="&#xc2;" horiz-adv-x="331" d="M198 687l-32 84l-32 -84h-41l57 160h31l60 -160h-43zM296 0l-48 215h-163l-49 -215h-43l157 684h37l151 -684h-42zM169 577l-73 -314h141z" />
<glyph unicode="&#xc3;" horiz-adv-x="331" d="M241 731q-13 -30 -38 -30q-15 0 -66 53q-3 0 -8 -26q-2 -13 -5 -54l-36 47q0 27 12 51q14 29 38 29q14 0 65 -53q2 0 6 12.5t4 64.5l39 -42q-1 -29 -11 -52zM296 0l-48 215h-163l-49 -215h-43l157 683h37l151 -683h-42zM169 576l-73 -314h141z" />
<glyph unicode="&#xc4;" horiz-adv-x="331" d="M195 696q-20 0 -20 25v53q0 25 20 25t20 -25v-53q0 -25 -20 -25zM139 696q-21 0 -21 25v53q0 25 21 25q20 0 20 -25v-53q0 -25 -20 -25zM296 0l-48 215h-163l-49 -215h-43l157 682h37l151 -682h-42zM169 576l-73 -314h141z" />
<glyph unicode="&#xc5;" horiz-adv-x="331" d="M211 739q-14 -36 -45 -36q-27 0 -41 32q-12 24 -12 53q0 28 12 53q14 32 41 32q28 0 42 -32q11 -23 11 -53q0 -28 -8 -49zM296 0l-48 216h-163l-49 -216h-43l157 685h37l151 -685h-42zM166 823q-12 0 -12 -35q0 -36 12 -36q13 0 13 36q0 35 -13 35zM169 578l-73 -315h141 z" />
<glyph unicode="&#xc6;" horiz-adv-x="528" d="M274 0v330h-110l-148 -330h-45l305 678h242v-47h-203v-254h22v-1h155v-46h-177v-283h205v-47h-246zM186 377h88l1 196z" />
<glyph unicode="&#xc7;" horiz-adv-x="352" d="M313 516q-41 121 -116 121q-82 0 -120 -116q-27 -81 -27 -186t25 -184q37 -116 117 -116q71 0 117 123l31 -40q-50 -131 -148 -131q-105 0 -151 135q-31 89 -31 209q0 124 32 216q47 138 155 138q103 0 147 -129zM183 -174q-22 0 -62 23l14 48q36 -23 47 -23q24 0 24 34 q0 24 -20 25q-5 0 -28 -22v40l4 81h40l-1 -53q48 -5 48 -75q0 -78 -66 -78z" />
<glyph unicode="&#xc8;" horiz-adv-x="276" d="M182 689q-7 -8 -15 -8q-13 0 -19 13l-56 118q-7 16 2 28q6 10 14 10q13 0 20 -13l56 -119q7 -16 -2 -29zM13 0v684h268v-48h-228v-256h202v-47h-202v-285h231v-48h-271z" />
<glyph unicode="&#xc9;" horiz-adv-x="276" d="M129 694q-6 -13 -18 -13q-22 0 -22 24q0 7 3 13q22 47 43 94q18 38 31 38t18 -14q5 -13 0 -24zM13 0v684h268v-48h-228v-256h202v-47h-202v-285h231v-48h-271z" />
<glyph unicode="&#xca;" horiz-adv-x="276" d="M169 697l-32 84l-32 -84h-41l57 160h32l60 -160h-44zM13 0v684h268v-47h-228v-257h202v-47h-202v-285h231v-48h-271z" />
<glyph unicode="&#xcb;" horiz-adv-x="276" d="M167 704q-21 0 -21 25v53q0 25 21 25q19 0 19 -25v-53q0 -25 -19 -25zM110 704q-20 0 -20 25v53q0 25 20 25t20 -25v-53q0 -25 -20 -25zM13 0v683h268v-48h-228v-256h202v-46h-202v-286h231v-47h-271z" />
<glyph unicode="&#xcc;" horiz-adv-x="66" d="M62 696q-13 0 -20 13l-55 118q-3 7 -3 14q0 24 21 24q11 0 18 -13l56 -119q5 -11 0 -24t-17 -13zM13 0v684h40v-684h-40z" />
<glyph unicode="&#xcd;" horiz-adv-x="66" d="M23 705q-6 -13 -19 -13q-8 0 -15 8q-9 13 -2 29l55 118q7 14 19 14q9 0 17 -10q7 -14 1 -27zM13 0v684h40v-684h-40z" />
<glyph unicode="&#xce;" horiz-adv-x="66" d="M64 693l-32 84l-32 -84h-42l58 160h31l60 -160h-43zM13 0v684h40v-684h-40z" />
<glyph unicode="&#xcf;" horiz-adv-x="66" d="M61 711q-20 0 -20 26v53q0 24 20 24q19 0 21 -24v-53q0 -26 -21 -26zM5 711q-21 0 -21 26v53q0 24 21 24q18 0 20 -24v-53q0 -26 -20 -26zM13 0v683h40v-683h-40z" />
<glyph unicode="&#xd0;" horiz-adv-x="333" d="M136 0h-123v316h-18v48h18v314h141q173 0 173 -340q0 -129 -34 -215q-48 -123 -157 -123zM154 631h-101v-267h97v-48h-97v-269h84q88 0 125 109q25 72 25 182q0 293 -133 293z" />
<glyph unicode="&#xd1;" horiz-adv-x="333" d="M239 731q-13 -36 -39 -36q-16 0 -67 53q-1 0 -5 -13t-4 -70l-39 50q0 26 12 50q14 30 37 30q15 0 66 -53q1 0 5 12q5 16 5 66l38 -42q-1 -26 -9 -47zM280 0l-227 570v-570h-40v682h40q77 -189 227 -566v566h40v-682h-40z" />
<glyph unicode="&#xd2;" horiz-adv-x="371" d="M229 702q-6 -8 -14 -8q-12 0 -19 13l-56 119q-2 7 -2 13q0 24 19 24q12 0 19 -13l56 -119q7 -16 -3 -29zM186 -7q-108 0 -154 136q-30 88 -30 213q0 123 30 208q46 131 154 131q107 0 154 -131q30 -86 30 -208q0 -128 -33 -218q-47 -131 -151 -131zM304 527 q-37 107 -118 107q-82 0 -119 -111q-25 -75 -25 -181q0 -105 26 -185q37 -116 118 -116q83 0 119 115q24 77 24 186q0 110 -25 185z" />
<glyph unicode="&#xd3;" horiz-adv-x="371" d="M175 709q-9 -11 -18 -11q-19 0 -19 24q0 7 2 13l55 118q6 13 19 13q9 0 16 -8q9 -13 2 -29zM186 -7q-108 0 -154 136q-30 88 -30 213q0 123 30 208q46 131 154 131q107 0 154 -131q30 -86 30 -208q0 -128 -33 -218q-47 -131 -151 -131zM304 527q-37 107 -118 107 q-82 0 -119 -111q-25 -75 -25 -181q0 -105 26 -185q37 -116 118 -116q83 0 119 115q24 77 24 186q0 111 -25 185z" />
<glyph unicode="&#xd4;" horiz-adv-x="371" d="M217 705l-32 84l-32 -84h-42l57 159h32l61 -159h-44zM186 -7q-108 0 -154 136q-30 88 -30 213q0 123 30 208q46 131 154 131q107 0 154 -131q30 -86 30 -208q0 -128 -33 -218q-47 -131 -151 -131zM304 527q-37 107 -118 107q-82 0 -119 -111q-25 -75 -25 -181 q0 -105 26 -185q37 -116 118 -116q83 0 119 115q24 77 24 186q0 111 -25 185z" />
<glyph unicode="&#xd5;" horiz-adv-x="371" d="M259 750q-13 -34 -39 -34q-14 0 -67 53q-7 0 -9 -17q-2 -33 -3 -67l-36 51q0 26 12 51q14 29 37 29q15 0 66 -53q1 0 5 12q5 16 5 69l38 -46q-1 -28 -9 -48zM186 -7q-108 0 -154 136q-30 88 -30 212q0 123 30 208q46 131 154 131q107 0 154 -131q30 -86 30 -208 q0 -127 -33 -218q-47 -130 -151 -130zM304 526q-37 107 -118 107q-82 0 -119 -111q-25 -75 -25 -181q0 -105 26 -184q37 -116 118 -116q83 0 119 115q24 77 24 185q0 111 -25 185z" />
<glyph unicode="&#xd6;" horiz-adv-x="371" d="M214 711q-20 0 -20 26v53q0 24 20 24t20 -24v-53q0 -26 -20 -26zM157 711q-20 0 -20 26v53q0 24 20 24q19 0 21 -24v-53q0 -26 -21 -26zM186 -7q-108 0 -154 136q-30 88 -30 212q0 123 30 208q46 131 154 131q107 0 154 -131q30 -86 30 -208q0 -127 -33 -218 q-47 -130 -151 -130zM304 526q-37 106 -118 106q-82 0 -119 -110q-25 -75 -25 -181q0 -105 26 -185q37 -115 118 -115q83 0 119 115q24 77 24 185q0 111 -25 185z" />
<glyph unicode="&#xd7;" horiz-adv-x="240" d="M144 252l67 -113l-24 -40l-67 111l-68 -111l-22 42l66 111l-66 109l23 42l67 -111l66 110l25 -41z" />
<glyph unicode="&#xd8;" horiz-adv-x="371" d="M186 -8q-33 0 -61 14l-9 -35h-41l15 62q-88 87 -88 306q0 122 30 207q46 130 154 130q32 0 60 -12l10 40h41l-15 -64q88 -84 88 -301q0 -127 -33 -217q-47 -130 -151 -130zM268 588l-131 -534q21 -15 49 -15q83 0 119 115q24 77 24 185q0 178 -61 249zM186 629 q-82 0 -119 -110q-25 -75 -25 -180q0 -170 61 -253l131 531q-22 12 -48 12z" />
<glyph unicode="&#xd9;" horiz-adv-x="325" d="M192 686q-10 0 -19 12l-56 120q-3 7 -3 13q0 24 21 24q11 0 18 -13l56 -118q5 -11 0 -24q-5 -14 -17 -14zM163 -7q-150 0 -150 265v426h40v-425q0 -218 110 -218q109 0 109 214v429h40v-428q0 -263 -149 -263z" />
<glyph unicode="&#xda;" horiz-adv-x="325" d="M152 700q-7 -11 -18 -11q-20 0 -20 22q0 7 3 15l55 118q7 13 19 13q9 0 17 -10q7 -14 1 -27zM163 -7q-150 0 -150 265v426h40v-425q0 -218 110 -218q109 0 109 214v429h40v-428q0 -263 -149 -263z" />
<glyph unicode="&#xdb;" horiz-adv-x="325" d="M194 695l-32 84l-32 -84h-42l58 160h31l60 -160h-43zM163 -7q-150 0 -150 265v426h40v-425q0 -218 110 -218q109 0 109 214v429h40v-428q0 -263 -149 -263z" />
<glyph unicode="&#xdc;" horiz-adv-x="325" d="M191 711q-20 0 -20 26v53q0 24 20 24t20 -24v-53q0 -26 -20 -26zM134 711q-20 0 -20 26v53q0 24 20 24q21 0 21 -24v-53q0 -26 -21 -26zM163 -7q-150 0 -150 264v426h40v-425q0 -217 110 -217q109 0 109 213v429h40v-428q0 -262 -149 -262z" />
<glyph unicode="&#xdd;" horiz-adv-x="322" d="M152 705q-6 -13 -18 -13q-22 0 -22 24q0 7 3 13l56 119q7 13 19 13q9 0 17 -10q7 -14 1 -27zM182 333v-333h-41v333l-156 351h46l130 -292l131 292h46z" />
<glyph unicode="&#xde;" horiz-adv-x="208" d="M115 168h-61v-168h-41v678h41v-147h62q80 0 80 -184q0 -179 -81 -179zM115 483h-61v-270l62 1q40 0 40 133q0 136 -41 136z" />
<glyph unicode="&#xdf;" horiz-adv-x="247" d="M89 -30v47q61 0 90 44t29 143q0 69 -22 121q-27 65 -97 65v48q56 0 72 13q27 21 27 86q0 55 -12 78q-15 28 -61 28q-61 0 -61 -134v-510h-41v391h-17v49h17q0 25 2 96q4 155 101 155q115 0 113 -148q-2 -98 -51 -129q35 -27 55 -100q15 -57 15 -109q0 -234 -159 -234z " />
<glyph unicode="&#xe0;" horiz-adv-x="270" d="M153 505q-10 0 -19 12l-56 118q-7 16 2 28q6 13 16 13t18 -16l56 -118q5 -10 0 -23q-5 -14 -17 -14zM219 0v53q-34 -64 -92 -64q-72 0 -105 102q-23 69 -23 156t24 157q34 103 106 103q58 0 90 -59v57h41v-505h-41zM203 381q-24 79 -76 79t-74 -87q-14 -55 -14 -126 q0 -211 88 -211q49 0 74 80q18 58 18 131q0 78 -16 134z" />
<glyph unicode="&#xe1;" horiz-adv-x="270" d="M120 518q-6 -12 -19 -12q-19 0 -19 23q0 7 2 13l55 118q7 13 19 13q9 0 16 -11t2 -26zM225 0v53q-34 -64 -92 -64q-72 0 -105 102q-23 69 -23 156q0 89 23 158q34 102 107 102q58 0 90 -59v57h40v-505h-40zM209 381q-24 79 -76 79t-74 -87q-14 -55 -14 -126 q0 -211 88 -211q52 0 76 86q16 56 16 125q0 78 -16 134z" />
<glyph unicode="&#xe2;" horiz-adv-x="270" d="M161 517l-32 82l-32 -82h-42l57 157h32l61 -157h-44zM225 0v53q-34 -64 -92 -64q-72 0 -105 102q-23 69 -23 156q0 89 23 158q34 102 107 102q58 0 90 -59v57h40v-505h-40zM209 381q-24 79 -76 79t-74 -87q-14 -55 -14 -126q0 -211 88 -211q52 0 76 86q16 56 16 125 q0 78 -16 134z" />
<glyph unicode="&#xe3;" horiz-adv-x="270" d="M201 555q-14 -28 -38 -28q-12 0 -61 46q-2 3 -5 6q-7 0 -9 -16q-2 -33 -3 -67l-36 51q0 26 12 50q14 29 37 29q12 0 60 -46q2 -3 5 -6q2 0 6 12t7 65l36 -43q-1 -31 -11 -53zM225 0v53q-34 -64 -92 -64q-72 0 -105 101q-23 69 -23 156q0 89 23 158q34 102 107 102 q58 0 90 -60v58h40v-504h-40zM209 380q-24 79 -76 79t-74 -87q-14 -55 -14 -126q0 -210 88 -210q52 0 76 85q16 57 16 125q0 78 -16 134z" />
<glyph unicode="&#xe4;" horiz-adv-x="270" d="M164 522q-20 0 -20 25v53q0 24 20 24t20 -24v-53q0 -25 -20 -25zM107 522q-20 0 -20 25v53q0 24 20 24q21 0 21 -24v-53q0 -25 -21 -25zM225 -1v54q-34 -64 -92 -64q-72 0 -105 101q-23 69 -23 156q0 89 23 157q34 103 107 103q58 0 90 -60v58h40v-505h-40zM209 379 q-24 80 -76 80t-74 -88q-14 -54 -14 -125q0 -210 88 -210q52 0 76 85q16 56 16 125q0 78 -16 133z" />
<glyph unicode="&#xe5;" horiz-adv-x="270" d="M132 531q-28 0 -42 31q-11 24 -11 53q0 30 11 54q14 31 42 31q27 0 41 -32q12 -24 12 -53q0 -30 -11 -54q-15 -30 -42 -30zM225 0v54q-34 -65 -92 -65q-72 0 -105 102q-23 69 -23 156q0 89 23 158q34 103 107 103q58 0 90 -60v58h40v-506h-40zM132 651q-12 0 -12 -36 q0 -35 12 -35t12 35q0 36 -12 36zM209 381q-24 80 -76 80t-74 -88q-14 -54 -14 -126q0 -211 88 -211q52 0 76 86q16 56 16 125q0 79 -16 134z" />
<glyph unicode="&#xe6;" horiz-adv-x="482" d="M260 226v-9q0 -181 90 -181q64 0 85 119h41q-11 -73 -35 -111q-36 -55 -92 -55q-57 0 -89 53v-43h-41v54q-34 -64 -92 -64q-72 0 -105 100q-23 68 -23 154t23 156q35 101 107 101q58 0 90 -59v57h41v-62q36 64 91 64q76 0 109 -94q22 -61 22 -144v-35zM423 380 q-24 73 -72 73q-50 0 -74 -71q-17 -49 -17 -109v0h180q-2 60 -17 107zM203 375q-24 78 -76 78t-74 -86q-14 -54 -14 -124q0 -207 88 -207q49 0 74 78q18 58 18 129q0 77 -16 132z" />
<glyph unicode="&#xe7;" d="M225 42q-33 -60 -91 -60q-76 0 -111 99q-22 65 -22 151q0 93 22 161q36 107 117 107q92 0 113 -152l-37 -35q-17 140 -77 140q-58 0 -83 -89q-15 -55 -15 -132q0 -71 15 -122q23 -81 78 -81q69 0 84 151l38 -32q-8 -65 -31 -106zM137 -174q-22 0 -61 23l11 48 q37 -24 48 -24q25 0 25 34q0 24 -21 25q-5 0 -28 -22v40l5 80h40l-1 -52q47 -6 47 -74q0 -78 -65 -78z" />
<glyph unicode="&#xe8;" d="M172 513q-7 -7 -14 -7q-12 0 -19 12l-56 117q-3 7 -3 14q0 24 21 24q11 0 18 -13l56 -118q7 -16 -3 -29zM38 229q4 -193 90 -193q63 0 87 121h40q-25 -168 -128 -168q-129 0 -129 258q0 88 24 158q34 102 108 102q76 0 109 -95q22 -61 22 -146v-36zM202 386 q-24 74 -72 74q-84 0 -92 -183h181q-2 61 -17 109z" />
<glyph unicode="&#xe9;" d="M175 638l-56 -118q-6 -12 -19 -12q-19 0 -19 23q0 7 2 13q20 44 39 89q20 41 36 41q8 0 16 -9q3 -8 3 -14q0 -5 -2 -13zM38 229q4 -193 90 -193q63 0 87 121h40q-25 -168 -128 -168q-129 0 -129 258q0 88 24 158q34 102 108 102q76 0 109 -95q22 -62 22 -146v-36z M202 386q-24 74 -72 74q-84 0 -92 -183h181q-2 61 -17 109z" />
<glyph unicode="&#xea;" d="M160 517l-32 82l-32 -82h-42l58 157h31l61 -157h-44zM38 229q4 -193 90 -193q63 0 87 121h40q-25 -168 -128 -168q-129 0 -129 258q0 88 24 158q34 102 108 102q76 0 109 -94q22 -62 22 -147v-36zM202 386q-24 74 -72 74q-84 0 -92 -183h181q-2 61 -17 109z" />
<glyph unicode="&#xeb;" d="M157 522q-20 0 -20 25v53q0 24 20 24q21 0 21 -24v-53q0 -25 -21 -25zM101 522q-20 0 -20 25v53q0 24 20 24t20 -24v-53q0 -25 -20 -25zM38 229q4 -193 90 -193q63 0 87 120h40q-25 -167 -128 -167q-129 0 -129 257q0 88 24 158q34 102 108 102q76 0 109 -95 q22 -62 22 -146v-35zM202 385q-24 74 -72 74q-84 0 -92 -183h181q-2 61 -17 109z" />
<glyph unicode="&#xec;" horiz-adv-x="67" d="M73 510q-17 -13 -29 8l-57 117q-7 16 2 28q6 13 16 13t18 -16l56 -118q9 -20 -6 -32zM13 0v496h41v-496h-41z" />
<glyph unicode="&#xed;" horiz-adv-x="67" d="M24 515q-6 -13 -18 -13q-22 0 -22 24q0 6 3 12l44 96q18 35 31 35q12 0 17 -13t0 -24zM13 0v496h41v-496h-41z" />
<glyph unicode="&#xee;" horiz-adv-x="67" d="M62 517l-28 80l-29 -80h-43l55 157h33l56 -157h-44zM13 0v496h41v-496h-41z" />
<glyph unicode="&#xef;" horiz-adv-x="67" d="M63 522q-20 0 -20 26v52q0 24 20 24q21 0 21 -24v-52q0 -26 -21 -26zM7 522q-21 0 -21 26v52q0 24 21 24q20 0 20 -24v-52q0 -26 -20 -26zM13 0v494h41v-494h-41z" />
<glyph unicode="&#xf0;" horiz-adv-x="276" d="M219 0v54q-34 -65 -92 -65q-72 0 -105 102q-23 69 -23 156t24 158q34 102 106 102q58 0 90 -59v113h-162v48h162v69h41v-678h-41zM203 381q-24 79 -76 79t-74 -87q-14 -55 -14 -126q0 -211 88 -211q49 0 74 80q18 58 18 131q0 78 -16 134z" />
<glyph unicode="&#xf1;" d="M203 561q-13 -34 -39 -34q-15 0 -67 52q-1 0 -5 -11q-4 -14 -4 -71l-39 50q0 26 12 50q14 29 37 29q15 0 66 -52q3 0 8 25q2 13 4 52l36 -43q-1 -27 -9 -47zM203 0v323q0 136 -68 136q-47 0 -68 -73q-13 -47 -13 -109v-277h-41v495h41v-35q29 46 80 46q62 0 90 -65 q19 -45 19 -109v-332h-40z" />
<glyph unicode="&#xf2;" horiz-adv-x="267" d="M177 514q-6 -8 -14 -8q-12 0 -19 12l-56 117q-3 7 -3 14q0 24 21 24q11 0 18 -13l56 -118q7 -15 -3 -28zM133 -11q-74 0 -109 101q-25 70 -25 158t23 156q34 103 112 103q76 0 110 -101q24 -68 24 -158q0 -93 -24 -162q-35 -97 -111 -97zM211 380q-25 80 -77 80 q-56 0 -80 -85q-15 -54 -15 -127q0 -71 16 -127q25 -85 79 -85q50 0 76 80q18 57 18 132q0 76 -17 132z" />
<glyph unicode="&#xf3;" horiz-adv-x="267" d="M124 514q-6 -13 -18 -13q-22 0 -22 25q0 6 3 12l56 118q7 13 19 13q9 0 17 -10q7 -14 1 -27zM133 -11q-74 0 -109 101q-25 70 -25 158t23 156q34 103 112 103q76 0 110 -101q24 -68 24 -158q0 -94 -24 -162q-35 -97 -111 -97zM211 380q-25 80 -77 80q-56 0 -80 -85 q-15 -54 -15 -127q0 -71 16 -127q25 -85 79 -85q50 0 76 80q18 57 18 132q0 76 -17 132z" />
<glyph unicode="&#xf4;" horiz-adv-x="267" d="M165 517l-32 82l-32 -82h-42l58 157h31l61 -157h-44zM133 -11q-74 0 -109 101q-25 70 -25 158t23 156q34 103 112 103q76 0 110 -101q24 -68 24 -158q0 -93 -24 -162q-35 -97 -111 -97zM211 380q-25 80 -77 80q-56 0 -80 -85q-15 -54 -15 -127q0 -71 16 -127 q25 -85 79 -85q50 0 76 80q18 57 18 132q0 76 -17 132z" />
<glyph unicode="&#xf5;" horiz-adv-x="267" d="M206 561q-13 -34 -39 -34q-12 0 -61 46q-2 3 -5 6q-8 0 -9 -16q-1 -3 -2 -65l-38 49q0 26 11 50q15 29 38 29q15 0 66 -52q7 0 9 16q3 32 5 64l34 -46q-1 -26 -9 -47zM133 -11q-74 0 -109 101q-25 70 -25 157q0 88 23 156q34 103 112 103q76 0 110 -101q24 -68 24 -158 q0 -93 -24 -161q-35 -97 -111 -97zM211 379q-25 80 -77 80q-56 0 -80 -85q-15 -54 -15 -127q0 -71 16 -126q25 -85 79 -85q50 0 76 80q18 57 18 131q0 77 -17 132z" />
<glyph unicode="&#xf6;" horiz-adv-x="267" d="M162 522q-20 0 -20 25v53q0 24 20 24t20 -24v-53q0 -25 -20 -25zM105 522q-20 0 -20 25v53q0 24 20 24q21 0 21 -24v-53q0 -25 -21 -25zM133 -11q-74 0 -109 101q-25 70 -25 157q0 88 23 155q34 104 112 104q76 0 110 -101q24 -68 24 -158q0 -93 -24 -161 q-35 -97 -111 -97zM211 379q-25 80 -77 80q-56 0 -80 -85q-15 -54 -15 -127q0 -71 16 -126q25 -85 79 -85q50 0 76 80q18 56 18 131q0 76 -17 132z" />
<glyph unicode="&#xf7;" horiz-adv-x="290" d="M145 291q-20 0 -20 24v60q0 23 20 23t20 -23v-60q0 -24 -20 -24zM9 217v46h264v-46h-264zM145 74q-20 0 -20 24v59q0 25 20 25t20 -25v-59q0 -24 -20 -24z" />
<glyph unicode="&#xf8;" horiz-adv-x="267" d="M133 -13q-23 0 -42 10l-11 -44h-41l18 72q-58 69 -58 219q0 88 23 155q34 103 112 103q21 0 39 -8l13 55h42l-20 -82q60 -68 60 -223q0 -92 -24 -160q-35 -97 -111 -97zM194 412l-92 -368q14 -10 32 -10q50 0 76 80q18 56 18 130q0 107 -34 168zM134 455q-56 0 -80 -84 q-15 -54 -15 -127q0 -99 32 -161l90 365q-13 7 -27 7z" />
<glyph unicode="&#xf9;" d="M172 509q-7 -7 -14 -7q-12 0 -19 12l-56 118q-7 15 2 27q6 13 16 13t18 -16l56 -118q7 -16 -3 -29zM203 0v36q-29 -47 -81 -47q-62 0 -90 71q-19 48 -19 114v322h41v-321q0 -139 68 -139q81 0 81 192v268h40v-496h-40z" />
<glyph unicode="&#xfa;" d="M119 518q-7 -13 -18 -13q-20 0 -20 25q0 6 2 12q21 47 42 93q18 38 32 38q13 0 18 -13t0 -25zM203 0v36q-29 -47 -81 -47q-62 0 -90 71q-19 48 -19 114v322h41v-321q0 -139 68 -139q81 0 81 192v268h40v-496h-40z" />
<glyph unicode="&#xfb;" d="M160 517l-32 82l-32 -82h-42l58 157h31l61 -157h-44zM203 0v36q-29 -47 -81 -47q-62 0 -90 71q-19 48 -19 114v322h41v-321q0 -139 68 -139q81 0 81 192v268h40v-496h-40z" />
<glyph unicode="&#xfc;" d="M157 522q-20 0 -20 25v53q0 24 20 24t20 -24v-53q0 -25 -20 -25zM100 522q-20 0 -20 25v53q0 24 20 24t20 -24v-53q0 -25 -20 -25zM203 -1v37q-29 -47 -81 -47q-62 0 -90 71q-19 48 -19 113v321h41v-320q0 -138 68 -138q81 0 81 191v267h40v-495h-40z" />
<glyph unicode="&#xfd;" horiz-adv-x="248" d="M170 637l-56 -118q-6 -12 -18 -12q-15 0 -19 14q-3 12 2 22l55 119q7 14 17 14q8 0 15 -9t7 -16t-3 -14zM118 -179q-112 0 -115 178h39q5 -130 77 -130q84 0 84 157v5q-29 -48 -81 -48q-62 0 -90 72q-19 48 -19 115v324h41v-323q0 -140 68 -140q81 0 81 193v270h40v-469 q0 -204 -125 -204z" />
<glyph unicode="&#xfe;" horiz-adv-x="276" d="M253 93q-31 -109 -109 -109q-58 0 -90 59v-211h-41v846h41v-234q33 62 89 62q74 0 107 -102q23 -68 23 -158q0 -86 -20 -153zM217 378q-23 81 -71 81q-53 0 -76 -83q-16 -55 -16 -128q0 -217 92 -217q87 0 87 214q0 75 -16 133z" />
<glyph unicode="&#xff;" horiz-adv-x="250" d="M153 521q-20 0 -20 26v53q0 24 20 24q19 0 21 -23v-54q0 -26 -21 -26zM97 521q-20 0 -20 26v53q0 24 20 24q18 0 20 -23v-54q0 -26 -20 -26zM118 -179q-112 0 -115 178h39q5 -131 77 -131q84 0 84 157v5q-29 -47 -81 -47q-62 0 -90 71q-19 49 -19 115v324h41v-323 q0 -140 68 -140q81 0 81 193v270h40v-469q0 -203 -125 -203z" />
<glyph unicode="&#x131;" horiz-adv-x="67" d="M13 0v488h41v-488h-41z" />
<glyph unicode="&#x152;" horiz-adv-x="495" d="M233 0q-22 -8 -45 -8q-107 0 -153 135q-31 88 -31 210q0 124 30 211q46 135 154 135q17 0 34 -5h266v-47h-195q71 -83 78 -255h102v-46h-101q-2 -192 -76 -283h195v-47h-258zM255 608v-232h76q-8 166 -76 232zM255 330v-262q74 73 76 262h-76zM215 632q-13 4 -27 4 q-82 0 -119 -115q-25 -78 -25 -184t25 -184q37 -115 119 -115q14 0 27 5v589z" />
<glyph unicode="&#x153;" horiz-adv-x="515" d="M281 226q5 -190 91 -190q64 0 85 119h41q-11 -73 -35 -111q-36 -55 -92 -55q-82 0 -112 106q-37 -106 -114 -106q-74 0 -110 100q-24 69 -24 155q0 87 23 154q34 102 112 102q83 0 116 -112q36 112 111 112t109 -94q23 -62 23 -144v-35zM445 380q-24 73 -72 73 q-81 0 -91 -180h180q-2 60 -17 107zM222 375q-26 78 -76 78q-56 0 -80 -84q-15 -53 -15 -125t15 -125q24 -83 80 -83q50 0 76 78q18 56 18 130t-18 131z" />
<glyph unicode="&#x160;" horiz-adv-x="315" d="M172 714h-33l-57 160h41l32 -84l32 84h43zM162 -7q-159 0 -159 228v25h40v-21q0 -184 119 -184q103 0 103 136q0 89 -51 119q-12 7 -68 32q-34 15 -47 22q-26 14 -41 31q-45 48 -45 135q0 175 139 175q145 0 147 -219h-41q-2 82 -18 118q-24 54 -88 54q-98 0 -98 -128 q0 -65 29 -97q18 -20 64 -37q91 -34 123 -72q36 -44 36 -136q0 -73 -34 -124q-40 -57 -110 -57z" />
<glyph unicode="&#x161;" horiz-adv-x="238" d="M132 526h-31l-57 158h41l32 -83l32 83h43zM122 -13q-117 0 -117 203h41q0 -154 76 -154q65 0 65 95q0 64 -47 86q-11 4 -47 15q-78 24 -78 132q0 51 20 91q27 54 79 54q113 0 113 -181h-42q0 131 -69 131q-29 0 -46 -33q-13 -27 -13 -62q0 -63 44 -80q16 -5 51 -19 q76 -27 76 -134q0 -144 -106 -144z" />
<glyph unicode="&#x178;" horiz-adv-x="325" d="M193 711q-20 0 -20 26v53q0 24 20 24t20 -24v-53q0 -26 -20 -26zM137 711q-21 0 -21 26v53q0 24 21 24q18 0 20 -24v-53q0 -26 -20 -26zM183 333v-333h-40v333l-157 350h46l131 -292l131 292h45z" />
<glyph unicode="&#x192;" horiz-adv-x="286" d="M301 619q-66 0 -94 -59q-15 -33 -25 -117h54l-7 -48h-54l-44 -374q-23 -189 -162 -189l6 47q98 0 114 131l46 385h-36l7 48h35q13 104 37 149q39 74 129 74z" />
<glyph unicode="&#x2c6;" horiz-adv-x="127" d="M95 540l-32 70l-32 -70h-43l59 134h31l61 -134h-44z" />
<glyph unicode="&#x2c7;" horiz-adv-x="67" d="M46 549h-31l-58 135h42l32 -71l32 71h44z" />
<glyph unicode="&#x2da;" horiz-adv-x="67" d="M76 600q-15 -31 -45 -31q-27 0 -42 27q-11 22 -11 46t11 46q15 27 42 27t42 -27q12 -21 12 -46q0 -23 -9 -42zM31 672q-12 0 -12 -30t12 -30q13 0 13 30t-13 30z" />
<glyph unicode="&#x2dc;" horiz-adv-x="179" d="M162 576q-14 -26 -40 -26q-12 0 -66 40q-1 -1 -5 -9.5t-4 -52.5l-39 38q0 19 11 37q14 25 38 25q12 0 60 -35q2 -3 5 -5q2 0 6.5 10t4.5 50l38 -34q-1 -22 -9 -38z" />
<glyph unicode="&#x3bc;" horiz-adv-x="286" />
<glyph unicode="&#x2013;" horiz-adv-x="243" d="M-15 254v20h272v-20h-272z" />
<glyph unicode="&#x2014;" horiz-adv-x="438" d="M-15 254v20h467v-20h-467z" />
<glyph unicode="&#x2018;" horiz-adv-x="86" d="M54 519q-3 -19 -20 -19q-24 0 -20 27l20 132q3 19 20 19q25 0 21 -27z" />
<glyph unicode="&#x2019;" horiz-adv-x="86" d="M54 519q-3 -19 -20 -19q-24 0 -20 27q9 57 17 114q7 37 22 37q13 0 19 -11q4 -7 3 -16z" />
<glyph unicode="&#x201a;" horiz-adv-x="143" d="M73 -72q-3 -20 -19 -20q-22 0 -22 22q0 3 1 7l21 131q3 19 18 19q4 0 8 -2q16 -6 13 -25z" />
<glyph unicode="&#x201c;" horiz-adv-x="131" d="M105 519q-3 -19 -19 -19q-9 0 -16 8t-5 19l21 132q4 24 26 17q17 -5 14 -25zM54 519q-3 -19 -20 -19q-24 0 -20 27l20 132q3 19 20 19q25 0 21 -27z" />
<glyph unicode="&#x201d;" horiz-adv-x="135" d="M106 519q-3 -19 -20 -19q-25 0 -21 27l21 132q4 27 28 17q15 -7 12 -25zM54 519q-3 -19 -20 -19q-24 0 -20 27q9 57 17 114q7 37 22 37q13 0 19 -11q4 -7 3 -16z" />
<glyph unicode="&#x201e;" horiz-adv-x="172" d="M124 -72q-3 -19 -19 -19q-11 0 -17 8q-5 5 -5 16l1 2q6 36 21 133q5 27 28 17q15 -7 12 -25zM73 -72q-3 -20 -19 -20q-22 0 -22 22q0 3 1 7l21 131q3 19 18 19q4 0 8 -2q16 -6 13 -25z" />
<glyph unicode="&#x2020;" horiz-adv-x="169" d="M101 449v-506h-41v506h-57v49h57v123h41v-123h58v-49h-58z" />
<glyph unicode="&#x2021;" horiz-adv-x="165" d="M103 41v-98h-40v98h-58v48h58v360h-58v49h58v123h40v-123h58v-49h-58v-360h58v-48h-58z" />
<glyph unicode="&#x2022;" horiz-adv-x="143" d="M59 250q-47 0 -47 22v106q0 22 47 22q48 0 48 -22v-106q0 -22 -48 -22z" />
<glyph unicode="&#x2026;" horiz-adv-x="313" d="M257 -2q-21 0 -21 20v47q0 20 21 20q20 0 20 -20v-47q0 -20 -20 -20zM164 -2q-20 0 -20 20v47q0 20 20 20t20 -20v-47q0 -20 -20 -20zM72 -2q-21 0 -21 20v47q0 20 21 20q19 0 19 -20v-47q0 -20 -19 -20z" />
<glyph unicode="&#x2030;" horiz-adv-x="496" d="M415 -19q-81 0 -81 180q0 185 81 185t81 -185q0 -180 -81 -180zM84 294q-80 0 -80 180q0 184 81 184q80 0 80 -184q0 -180 -81 -180zM80 -1h-45l244 679h44zM266 -19q-81 0 -81 180q0 185 81 185q80 0 80 -185q0 -180 -80 -180zM415 299q-40 0 -40 -138q0 -133 40 -133 t40 133q0 138 -40 138zM84 611q-39 0 -39 -137q0 -133 40 -133t40 133q0 137 -41 137zM266 299q-40 0 -40 -138q0 -133 40 -133q39 0 39 133q0 138 -39 138z" />
<glyph unicode="&#x2039;" horiz-adv-x="144" d="M20 261v25l103 137v-68l-60 -81l60 -82v-64z" />
<glyph unicode="&#x203a;" horiz-adv-x="144" d="M20 128v64l60 82l-60 81v68l103 -137v-25z" />
<glyph unicode="&#x20ac;" horiz-adv-x="286" d="M80 242q1 -73 16 -126q24 -81 78 -81q39 0 77 78l27 -42q-40 -83 -104 -83q-76 0 -111 99q-23 66 -24 155h-38l6 47h32v74h-26l6 48h20v0q0 89 25 159q35 101 110 101q64 0 104 -83l-27 -44q-38 80 -77 80q-94 0 -94 -213v0h146l-6 -48h-140v-74h132l-3 -47h-129z" />
<glyph unicode="&#x2122;" horiz-adv-x="387" d="M333 347v186l-50 -186h-35l-53 192l1 -192h-42v290h-28v-290h-43v290h-72v47h188l67 -240l65 240h45v-337h-43z" />
<glyph unicode="&#x2212;" horiz-adv-x="290" d="M9 231v19h264v-19h-264z" />
<glyph unicode="&#xe000;" horiz-adv-x="490" d="M0 490h490v-490h-490v490z" />
<glyph horiz-adv-x="173" />
<glyph horiz-adv-x="173" />
<glyph horiz-adv-x="173" />
<glyph horiz-adv-x="173" />
<glyph horiz-adv-x="173" />
<glyph horiz-adv-x="173" />
<glyph horiz-adv-x="143" />
<glyph horiz-adv-x="143" />
<glyph horiz-adv-x="143" />
<glyph horiz-adv-x="143" />
<glyph horiz-adv-x="143" />
<glyph horiz-adv-x="143" />
<glyph horiz-adv-x="143" />
<glyph horiz-adv-x="143" />
<glyph horiz-adv-x="143" />
<glyph horiz-adv-x="143" />
<glyph horiz-adv-x="143" />
<glyph horiz-adv-x="143" />
<glyph horiz-adv-x="143" />
<glyph horiz-adv-x="143" />
<glyph horiz-adv-x="143" />
<glyph horiz-adv-x="206" d="M254 435q0 49 -14 78q-14 26 -35 26q-26 0 -39 -35q-10 -26 -10 -58q0 -45 -17 -82q-24 -53 -71 -53t-72 55q-17 38 -17 94h40q0 -52 16 -81q13 -24 33 -24q26 0 39 34q10 25 10 57q0 68 33 108q24 29 55 29q48 0 72 -55q16 -38 16 -96z" />
<glyph horiz-adv-x="171" d="M131 382v-126h-43v126h-133l84 276h44l-70 -228h75v229l43 -3v-226h45v-48h-45z" />
</font>
</defs>
</svg>
